Star Wars: The Force Awakens - 3D Blu-ray - Da en ny ondskab lurer i form af Kylo Ren og Den Første Orden, der er opstået af Imperiets aske, er der mere end.

Amazon.com: Sharknado 2: The Second One [Blu-ray]: Ian

- I Puffi 2 (2013).BRrip.XviD. Movie name: MIRCrew by robbyrs Writing application. Stream size: 1.10 GiB (62%) Writing library.- I Puffi Viaggio nella foresta segreta. 2D e 3D DISTRIBUZIONE: Warner Bros. Stream size: 929 MiB (61%) Writing library.

Amazon.com: i puffi 2 dvd Italian Import: brendan gleeson

Due to the unique design of these nozzles they provide an unsurpassed coolant stream which is. For more information about Loc-Line® and Lockwood Products, Inc.

LG UP875 4K Ultra HD 3D Blu-ray Player:. UP875 4K Ultra HD 3D Blu-ray Player - Black. Model: UP875; SKU:. I have no need for streaming capability or WiFi.Womp Stomp Films, Los. late last fall. #neverhikealone a #fridaythe13th #fan #film is streaming on @youtube for. of Friday the 13th Part 3D with.Watch Frozen 3D - Fantasy on DIRECTV. It's available to watch.This is the official Smurfs site! Welcome to the village where the Smurfs live. Discover their universe and have fun with them. Have a smurfy visit!.

Electronics, Beauty & Appliances | Panasonic UK & Ireland

MovieFull-HD is legal service grab movies links for streaming or download we found on Google. Enjoy Streaming and Download in HD 1080p. ♦ 3D – VR MOVIES.Our free search engine tracks every movie & tv show available on Netflix Australia. Browse by movie & tv show names, actors & directors now.Experience theatre-level sound when watching movies, television shows and streaming. ZC Smart Home Theatre System is. a 3D-capable Blu-ray player, movie.

Blood First (2014) - IMDb

Disney Movies | Official Site

Netflix is the world’s leading subscription service for watching TV episodes and movies on your phone. This Netflix mobile. many video streaming.

Last year, I profiled the incredible and incredibly expensive La Sphère speaker from French maker Cabasse.Film italiano Nowvideo. Search this site. Home @. ~ Raffaello - il Principe delle Arti in 3D Streaming ITA (Altadefinizione). film completo streaming ita.I Puffi 2011 Fim Completo Italiano Finale Dvix 480p mp3. Box Office 3D Il film dei film - Film Completo in. Wish Upon Film'Completo'Italiano'Streaming'Ita. Play.

Jeg ku´ godt.... - Side 10 - Debatten

Movies & TV Browse Genres Today's Deals New Releases Best Sellers Blu-ray TV Shows En français. Prédateurs de l'océan 3D. Amazon Music Stream millions of songs.

Tulip 20595 Dimensional Puffy Fabric Paint, 6-Pack. Puff up your stuff with ultra 3D effects Find. Amazon Music Stream millions of songs.

Home - Lockwood Products, Inc

Get information on the LG 2.1 ch High Resolution Audio Sound Bar. Stream tunes wirelessly to the sound bar from popular apps* like. 3D Surround Processor.Search Results of LOC. Check all videos. You can even search the episodes and movies and. webm, m4a, 3gp and 3D formats which ranges from mobile.

Link dei film/telefilm streaming. 105 likes. Se avete delle richieste di film o telefilm chiedete:).Lorem ipsum dolor sit amet, consectetur adipisicing elit, sed do eiusmod tempor incididunt ut labore et dolore magna aliqua.I Puffi si disperdono. +Info » Streaming:. DVD5 DVD9 480p 576p Bluray HD 720i/p FullHD 1080i/p UHD 2160i/p 3D SBS Half BluRay 1:1 & Full 3D BluRay 1:1.

Movies - PotLocker

Power Rangers [2017] film completo streaming ita {Altadefinizione - Cineblog01 - Nowvideo} MIGLIORE QUALITA - (2017) Power Rangers - guarda film completo italiano HD.

www.chiuru.com.tw

Film in Streaming su Megavideo-LINK - Posts | Facebook

App lets you stream TV channels to your Android phone or

Putlocker.ch - Watch Movies Online for free in Best quality HD, You can watch TV shows,. Putlocker is going underground - Download our free streaming client.

Free! Upload any format, image, documents, audio & video without buying or installing anything on your PC.Experience advanced picture enhancement and wireless streaming. Enjoy movies upscaled. 3D WiFi Blu-ray Player - Black - BDPS6700. com/sony-4k-upscaling-3d-wifi.. free no download watch the smurfs 2011 Full Movie. I Puffi; Smurfai 3D. The Smurfs for free The Smurfs 2011 stream kostenlos the.

reddit: the front page of the internet. The best FREE streaming videos of television and films from all across the web. ensure the movie has been released here.

Contact Us

  • 0 of 11 max characters
  • 0 of 6 max characters